Сериал Метод Скачать

Начали выползать глюки !!! Запускаю фильм «Иллюзионист» Бутырка Скачать Торрент. Звук по-началу нормально, потом то идёт на опережение, то отстаёт. ХЗ. Синхронизация аудио по-умолчанию без сохранения. У меня уже не первый случай. В VLC всё нормально играет General Unique ID : 170459728376569785960861422984495027834 (0x803D597A1809B591BE5BA46AE8CED67A) Complete name : F:\Фильмы\Кино\Выбери Год\2006\Иллюзионист – 2006 – The Illusionist Музыка Из К/ф Усатый Нянь Скачать Бесплатно. mkv Format : Matroska Format version : Version 4 / Version 2 File size : 7. 95 GiB Duration : 1 h 48 min Overall bit rate : 10. 4 Mb/s Encoded date : UTC 2013-07-19 22:28:33 Writing application : mkvmerge v6. 2. 0 (‘Promised Land’) built on Apr 28 2013 12:22:01 Writing library : libebml v1 3 Астрал 2 Скачать В Хорошем Качестве Бесплатно Hd 1080. 0 + libmatroska v1. 4. 0 Video ID : 1 Format : AVC Format/Info : Advanced Video Codec Format profile : [email protected] 1 Format settings, CABAC : Yes Format settings, RefFrames : 4 frames Codec ID : V_MPEG4/ISO/AVC Duration : 1 h 48 min Bit rate : 9 363 kb/s Width : 1 920 pixels Height : 1 080 pixels Display aspect ratio : 16:9 Frame rate mode : Constant Frame rate : 23. 976 FPS Color space : YUV Chroma subsampling : 4:2:0 Bit depth : 8 bits Scan type : Progressive Bits/(Pixel*Frame) : 0 188 Stream size : 6 Перевошик Скачать. 97 GiB (88%) Writing library : x264 core 135 r2345 f0c1c53 Encoding settings : cabac=1 / ref=4 / deblock=1:-3:-3 / analyse=0×3:0×133 / me=tesa / subme=11 / psy=1 / psy_rd=1. 00:0. 00 / mixed_ref=1 / me_range=32 / chroma_me=1 / trellis=2 / 8x8dct=1 / cqm=0 / deadzone=21,11 / fast_pskip=0 / chroma_qp_offset=-2 / threads=12 / lookahead_threads=1 / sliced_threads=0 / nr=0 / decimate=0 / interlaced=0 / bluray_compat=0 / constrained_intra=0 / bframes=4 / b_pyramid=2 / b_adapt=2 / b_bias=0 / direct=3 / weightb=1 / open_gop=0 / weightp=2 / keyint=240 / keyint_min=23 / scenecut=40 / intra_refresh=0 / rc=2pass / mbtree=0 / bitrate=9363 / ratetol=1. 0 / qcomp=0. 60 / qpmin=0 / qpmax=69 / qpstep=4 / cplxblur=20 0 / qblur=0 Старкрафт 3 Скачать Торрент На Русском. 5 / ip_ratio=1. 40 / pb_ratio=1. 30 / aq=1:1. 00 Language : English Default : Yes Forced : No Audio #1 ID : 2 Format : AC-3 Format/Info : Audio Coding 3 Format settings, Endianness : Big Codec ID : A_AC3 Duration : 1 h 48 min Bit rate mode : Constant Bit rate : 448 kb/s Channel(s) : 6 channels Channel positions : Front: L C R, Side: L R, LFE Sampling rate : 48. 0 kHz Frame rate : 31 250 FPS (1536 SPF) Bit depth : 16 bits Compression mode : Lossy Stream size : 349 MiB (4%) Title : AC3 5 Джиган Это Ведь Жизнь Моя Скачать. 1ch 448 kbps – Дубляж Language : Russian Service kind : Complete Main Default : Yes Forced : No Audio #2 ID : 3 Format : AC-3 Format/Info : Audio Coding 3 Format settings, Endianness : Big Codec ID : A_AC3 Duration : 1 h 48 min Bit rate mode : Constant Bit rate : 640 kb/s Channel(s) : 6 channels Channel positions : Front: L C R, Side: L R, LFE Sampling rate : 48. 0 kHz Frame rate : 31. 250 FPS (1536 SPF) Bit depth : 16 bits Compression mode : Lossy Stream size : 499 MiB (6%) Title : AC3 5. 1ch 640 kbps – Английский Language : English Service kind : Complete Main Default : No Forced : No

Нашлось

7104 статьи по запросу «сериал метод скачать»

сериал метод скачать
13.08.2018 07:27:31

Сериал Шерлок 1, 2, 3, 4 сезон скачать торрент бесплатно ...

Скачать сериал Шерлок через торрент: Прежде чем скачать сериал Шерлок Холмс через торрент ...

сериал метод скачать
20.08.2018 06:27:31

Скачать сериал Элементарно торрент бесплатно

Скачать сериал Элементарно через торрент: Интересное о сериале Элементарно через торрент.

сериал метод скачать
18.08.2018 06:27:31

Скачать новые лучшие российские сериалы бесплатно

Все 12 серий! / Качество SATRip Сериал “Вангелия” расскажет о истории жизни многим

сериал метод скачать
18.08.2018 07:27:31

скачать фильмы на андроид телефон планшет бесплатно ...

здесь можно бесплатно скачать фильмы мультфильмы сериалы на андроид телефон планшет

сериал метод скачать
20.08.2018 06:27:31

ФИЛЬМ ВИДЕОКУРС АНГЛИЙСКИЙ СКАЧАТЬ видеокурсы английского ...

Скачать бесплатно видеокурсы английского языка, фильмы в оригинале с субтитрами. Фильмы ...

сериал метод скачать
17.08.2018 06:27:31

Скачать PotPlayer

Скачать PotPlayer. На этой странице вы имеете возможность скачать последние версии Daum PotPlayer для ...

сериал метод скачать
11.08.2018 08:27:31

Сериал Friends (Друзья) на английском языке с субтитрами ...

Смотреть онлайн сериал Friends (Друзья) ВСЕ 10 СЕЗОНОВ в хорошем качестве на английском языке с ...

сериал метод скачать
13.08.2018 07:27:31

Интервью — Эхо Москвы

На вашу почту придет письмо со ссылкой на страницу восстановления пароля

Rar Скачать Бесплатно На Русском Для Windows 7 Хром Скачать Бесплатно Как Скачать Джабер 3Ds Max Скачать Торрент Русская Версия Скачать Видео Из Вконтакте Торрентино Outlook Express Скачать Бесплатно Русская Версия Для Windows 7 Приказ 1045 Мвд Рф По Автотранспорту Скачать Мелехин Административное Право Скачать Скачать Конвертер Mp3 В Wav Скачать Антиафэка Tarro Wave Board Скачать Скачать Бесплатно Драйвер Для Принтера Canon Lbp 2900 Скачать Резюме На Работу Образец 2015 Элементарно Смотреть 4 Сезон Торрент Календарь 2016 Скачать Скачать Case Simulator На Андроид Мост 3 Сезон Скачать Торрент Скачать Аваст Касперский Скачать Бесплатно Скачать Виндовс Зверь 2015 Через Торрент Медиа Джет Торрент Список 10 Рублевых Монет Список Скачать Скачать Воркаут Музыку Для Тренировок Скачать Excel Бесплатно Для Windows 8 Видеоредактор Скачать Бесплатно Наш Сосед Скачать Минус Скачать Музыку Бесплатно На Телефон Muzofon.com Скачать Бесплатно Без Регистрации